Intruders 2011

ACTION ADVENTURE MOVIE ROMANCE SERIES THRILLER

Intruders 2011 720p Esub BluRay Dual Audio English Hindi GOPISAHI

Format : Matroska
Format version : Version 4 / Version 2
File size : 706 MiB
Duration : 1 h 39 min
Overall bit rate : 987 kb/s
Movie name : Intruders 2011

[How to Download]

Video
Format : AVC
Codec ID : V_MPEG4/ISO/AVC
Duration : 1 h 39 min
Bit rate : 813 kb/s
Width : 1 280 pixels
Height : 544 pixels
Display aspect r

atio : 2.35:1
Frame rate mode : Constant
Frame rate : 23.976 (24000/1001) FPS
Stream size : 581 MiB (82%)
Writing library : x264

Audio #1
Format : AAC
Duration : 1 h 39 min
Bit rate : 84.8 kb/s
Channel(s) : 6 channels
Channel positions : Front: L C R, Side: L R, LFE
Sampling rate : 44.1 kHz
Frame rate : 43.066 FPS (1024 SPF)
Stream size : 60.6 MiB (9%)
Language : English

Audio #2
Format : AAC
Duration : 1 h 39 min
Bit rate : 86.6 kb

/s
Channel(s) : 6 channels
Channel positions : Front: L C R, Side: L R, LFE
Sampling rate : 44.1 kHz
Frame rate : 43.066 FPS (1024 SPF)
Stream size : 61.9 MiB (9%)
Language : Hindi

Text
Language : English

2 thoughts on “Intruders 2011

  1. I like the valuable information you provide in your articles.

  2. Thanks for fantastic info I was looking for this info for my mission.

Leave a Reply

Your email address will not be published. Required fields are marked *